#TITLE:Go Beyond;
#SUBTITLE:;
#ARTIST:Ryu* vs Sota;
#TITLETRANSLIT:;
#SUBTITLETRANSLIT:;
#ARTISTTRANSLIT:;
#CREDIT:XOX;
#BANNER:Go Beyond-banner.JPG;
#BACKGROUND:Go Beyond-bg.jpg;
#LYRICSPATH:;
#CDTITLE:!cdtitle.png;
#MUSIC:go beyond.mp3;
#OFFSET:-0.128;
#SAMPLESTART:18.850;
#SAMPLELENGTH:12.000;
#SELECTABLE:YES;
#BPMS:0.000=100.095,2.000=200.190,16.000=100.095,17.000=200.190,23.000=100.095,24.000=200.190,60.000=100.095,62.000=200.190,90.000=100.095,148.000=200.190,162.000=100.095,163.000=200.190,175.000=100.095,177.000=200.190,191.000=100.095,192.000=200.190,204.000=100.095,206.000=200.190,234.000=100.095,236.000=200.190,268.000=100.095,286.500=200.190;
#STOPS:147.750=0.060
;
#BGCHANGES:;
// cache tags:
#FIRSTBEAT:0.000;
#LASTBEAT:290.000;
#SONGFILENAME:Songs/nhac/[XOX]-Go Beyond/Go Beyond! (1).sm;
#HASMUSIC:1;
#HASBANNER:1;
#MUSICLENGTH:117.106;
// end cache tags

//---------------dance-single - ----------------
#NOTES:
     dance-single:
     :
     Hard:
     13:
     1.000,1.000,1.000,1.000,0.850,595.000,279.000,291.000,0.000,106.000:
2010
3201
0321
0132
1013
0100
0101
0010
,
1010
0000
0000
0100
0000
0000
0011
0000
0000
0100
0000
0000
1010
0000
0000
0000
0010
0000
0101
0000
0000
0101
0000
0000
,
1010
0000
1001
1001
0101
0010
1010
0110
,
0101
0000
0000
0011
0000
0000
1001
0000
0000
0010
0000
0000
1110
0000
0000
0000
0010
0000
1101
0000
0000
0101
0000
0000
,
1011
0000
0000
0000
0000
0000
0000
0000
0000
0000
0000
0000
0000
0000
0000
0000
2202
3000
0303
0000
0000
0000
0000
0000
0010
0000
0000
0000
0000
0000
0000
0000
0101
0000
0000
0000
0000
0000
0000
0000
0010
0000
0000
0000
0000
0000
0000
0000
1010
0000
0000
0000
0000
0000
0000
0000
0100
0000
0000
0000
0000
0000
0000
0000
,
0101
0000
1000
0000
0101
0000
0000
0101
0000
0000
0101
0000
1101
0000
0000
0000
,
1101
0000
0000
0000
1101
0001
0001
0000
,
1001
0000
0000
0000
0000
0000
0000
0000
0000
0000
0000
0001
0000
0000
0000
0000
1001
0000
0000
0000
0000
0000
0000
0000
0001
0000
0000
0000
0000
0000
0000
0000
0101
0000
0000
0000
0000
0000
0000
0000
0101
0000
0000
0000
0000
0000
0000
0000
0010
0000
0000
0000
0000
0100
0000
0000
0010
0000
0000
0000
0000
0100
0000
0000
,
2002
3003
0010
0000
2002
3003
0010
0000
0202
0303
0202
0303
0010
0000
0202
0303
,
2020
3030
0220
0330
0001
0000
0220
0330
0100
0000
2020
3030
2120
3030
0110
0000
,
2102
3003
0010
0000
2002
3003
0010
0000
2002
3003
2002
3003
0202
0303
0022
0033
,
2022
3033
0000
0000
0000
0000
0000
0000
2022
3033
0000
0000
0000
0000
0000
0000
0000
0000
0000
0000
0000
0000
0000
0000
2022
3033
0000
0000
0000
0000
0000
0000
0000
0000
0000
0000
0000
0000
0000
0000
2022
3033
0000
0000
0000
0000
0000
0000
0000
0000
0000
0000
0000
0000
0000
0000
2022
3033
0000
0000
0100
0000
0000
0000
,
2002
3003
0010
0000
2002
3003
0010
0000
0202
0303
0202
0303
0001
0000
0202
0303
,
2022
0003
0000
0000
3030
0000
0000
0000
0220
0000
0000
0000
0330
0000
0000
0000
0000
0000
0000
0000
0000
0000
0000
0000
0220
0000
0000
0000
0330
0000
0000
0000
0000
0000
0000
0000
0000
0000
0000
0000
2020
0000
0000
0000
3030
0000
0000
0000
2020
0000
0000
0000
3030
0000
0000
0000
0100
0000
0000
0000
0000
0000
0000
0000
,
2022
0030
0000
0000
3003
0000
0000
0000
0000
0000
0000
0000
0000
0000
0000
0000
2002
0000
0000
0000
3003
0000
0000
0000
0000
0000
0000
0000
0000
0000
0000
0000
2022
0030
0000
0000
3003
0000
0000
0000
0001
0000
0000
0000
0000
0000
0000
0000
2002
0000
0000
0000
3003
0000
0000
0000
0001
0000
0000
0000
0000
0000
0000
0000
,
0002
0000
0000
0003
0001
0000
0000
0000
0100
0000
0000
0000
0001
0000
0000
0000
1000
0000
0000
0000
0100
0000
0000
0000
0001
0000
0000
0000
0010
0000
0000
0000
2200
0000
0000
0000
3300
0000
0000
0000
0010
0000
0000
0000
0000
0000
0000
0000
2200
0000
0000
0000
3300
0000
0000
0000
0010
0000
0000
0000
0000
0000
0000
0000
,
0202
0303
0202
0303
0010
0000
0202
0303
2020
3030
0220
0330
0001
0000
0220
0330
,
0100
0000
2020
3030
2120
3030
0110
0000
2102
3003
0010
0000
2002
3003
0010
0000
,
2002
0000
3003
0000
2002
0000
3003
0000
0202
0000
0303
0000
0022
0000
0033
0000
0022
0033
0000
0000
0022
0033
0000
0000
0000
0000
0000
0000
0022
0033
0000
0000
,
0000
0000
0000
0000
0000
0000
0000
0000
0022
0000
0033
0000
0000
0000
0000
0000
0022
0000
0033
0000
0000
0000
0000
0000
0100
0000
0000
0000
0010
0000
0000
0000
2022
3033
0000
0000
0000
0000
0000
0000
0000
0000
0000
0000
0000
0000
0000
0000
2022
3033
0000
0000
0000
0000
0000
0000
0000
0000
0000
0000
0000
0000
0000
0000
,
2022
3033
0000
0000
0000
0000
0000
0000
2022
3033
0000
0000
0000
0000
0000
0000
0000
0000
0000
0000
0000
0000
0000
0000
2022
3033
0000
0000
0000
0000
0000
0000
2022
3033
0000
0000
0000
0000
0000
0000
2022
3033
0000
0000
0000
0000
0000
0000
0000
0000
0000
0000
0000
0000
0000
0000
2022
3033
0000
0000
0000
0000
0000
0000
,
0000
0000
0000
0000
0000
0000
0000
0000
0000
0000
0000
0000
0000
0000
0000
0000
0000
0000
0000
0000
0000
0000
0000
0000
2022
0000
0000
3033
0000
0000
0000
0000
0000
0000
0000
0000
0000
0000
0000
0000
0000
0000
0000
0000
0000
0000
0000
0000
0011
0000
0000
0000
0000
0000
0000
0000
0000
0000
0000
0000
0000
0000
0000
1100
0000
0000
0000
0000
0000
0000
0000
0000
0011
0000
0000
0000
0000
0000
0000
0000
0000
0000
0000
0000
0000
0000
0000
1100
0000
0000
0000
0000
0000
0000
0000
0000
0022
0000
0000
0033
0000
0000
0000
0000
0000
0000
0000
0000
0000
0000
0000
0000
0000
0000
0000
0000
0000
0000
0000
0000
2022
0000
0000
3033
0000
0000
0000
0000
0000
0000
0000
0000
0000
0000
0000
0000
0000
0000
0000
0000
0000
0000
0000
0000
0001
0000
0000
0000
0000
0000
0000
0000
0010
0000
0000
0000
0000
0000
0000
0000
0100
0000
0000
0000
0000
0000
0000
0000
1000
0000
0000
0000
0000
0000
0000
0000
0001
0000
0000
0000
0000
0000
0000
0000
0010
0000
0000
0000
0000
0000
0000
0000
,
0202
0000
0000
0303
0000
0000
0000
0000
0000
0000
0000
0000
0000
0000
0000
0000
0000
0000
0000
0000
0000
0000
0000
0000
0202
0000
0000
0303
0000
0000
0000
0000
0000
0000
0000
0000
0000
0000
0000
0000
0000
0000
0000
0000
0000
0000
0000
0000
0001
0000
0000
0000
0010
0000
0000
0000
0100
0000
0000
0000
1000
0000
0000
0000
0001
0000
0000
0000
0010
0000
0000
0000
0100
0000
0000
0000
1000
0000
0000
0000
0001
0000
0000
0000
0010
0000
0000
0000
0100
0000
0000
0000
1000
0000
0000
0000
0001
0000
0000
0000
0000
0000
0000
0000
0000
0000
0000
0000
0000
0000
0000
0000
0000
0000
0000
0000
0000
0000
0000
0000
0000
0000
0000
0000
0000
0000
0000
0000
0000
0000
0000
0000
0000
0000
0000
0000
0000
0000
0000
0000
0000
0000
0000
0000
0000
0000
0000
0000
0000
0000
0000
0000
0000
0000
0000
0000
0000
0000
0000
0000
0000
0000
0000
0000
0000
0000
0000
0000
0000
0000
0000
0000
0000
0000
0000
0000
0000
0000
0000
0000
0000
0000
0000
0000
0000
0000
0000
0000
0000
0000
0000
0000
,
2202
3300
0000
0000
0000
0000
0000
0000
0000
0000
0000
0000
0000
0000
0000
0000
0023
0000
0000
0000
0000
0000
0000
0000
0000
0000
0000
0000
0000
0000
0000
0000
0230
0000
0000
0000
0000
0000
0000
0000
0000
0000
0000
0000
0000
0000
0000
0000
2300
0000
0000
0000
0000
0000
0000
0000
0000
0000
0000
0000
0000
0000
0000
0000
,
3200
0000
0000
0320
,
0032
0023
2030
3200
,
0320
0000
0000
0230
,
2312
3000
0000
0000
0000
0000
0000
0000
0000
0000
0000
0000
0000
0000
0000
0000
0123
0000
0000
0000
0000
0000
0000
0000
0000
0000
0000
0000
0000
0000
0000
0000
1230
0000
0000
0000
0000
0000
0000
0000
0000
0000
0000
0000
0000
0000
0000
0000
2301
0000
0000
0000
0000
0000
0000
0000
0000
0000
0000
0000
0000
0000
0000
0000
,
3210
0010
0010
1320
,
0132
0123
2130
3210
,
1320
0000
0000
0000
0000
0000
0000
0000
0100
0000
0000
0000
0000
0000
0000
0000
0100
0000
0000
0000
0000
0000
0030
0000
2200
3000
0000
0000
0000
0000
0000
0000
,
2322
3000
0030
0000
0000
0000
0000
0000
0000
0000
0000
0000
0000
0000
0000
0000
0010
0000
0000
0000
0000
0000
0000
0000
0000
0000
0000
0000
0000
0000
0000
0000
0010
0000
0000
0000
0000
0000
0000
0000
0000
0000
0000
0000
0003
0000
0000
0000
0202
0000
0003
0000
0000
0000
0000
0000
0000
0000
0000
0000
0000
0000
0000
0000
,
2320
0030
0000
0000
0000
0000
0000
0000
0010
0000
0000
0000
0000
0000
0000
0000
0010
0000
0000
0000
0000
0000
3000
0000
0220
0030
0000
0000
0000
0000
0000
0000
,
0322
0003
0000
0000
0000
0000
0000
0000
0232
0300
0000
0000
0000
0000
0000
0000
0223
0030
0000
0000
0000
0000
0000
0000
2320
3000
0000
0000
0000
0000
0000
0000
,
2230
0300
0000
0000
0000
0000
0000
0000
0100
0000
0000
0000
0000
0000
0000
0000
0100
0000
0000
0000
0000
0000
0000
0000
0000
0000
0000
0000
0000
0000
0000
0000
,
0000
0000
0000
0000
0000
0000
0000
0000
0000
0000
0000
0000
0000
0000
0000
0000
0000
0000
0000
0000
0000
0000
0000
0000
0000
0000
0000
0000
3000
0000
0000
0000
2202
0000
3003
0000
0000
0000
0000
0000
0000
0000
0000
0010
0000
0000
0000
0000
0000
0000
0000
0000
0000
0000
0000
0000
0000
0000
0000
0001
0000
0000
0010
0000
,
0300
0000
0000
0000
0000
0000
0000
0000
0000
0000
0000
0000
0000
0000
0000
0000
0000
0000
0000
0000
0000
0000
0000
0000
0000
0000
0000
0000
0000
0000
0000
0000
0000
0000
0000
0000
0000
0000
0000
0000
0000
0000
0000
0000
0000
0000
0000
0000
0000
0000
0000
0000
0000
0000
0100
0000
0000
0000
0000
0000
0000
0000
0000
0000
0000
0000
0000
0000
0000
0000
0000
0000
0000
0000
0000
0000
0000
0000
0010
0000
0000
0000
0000
0000
0000
0000
0000
0000
0100
0000
0000
0000
0000
0000
0000
0000
0000
0000
0000
0000
0000
0000
0000
0000
0000
0000
0000
0000
0000
0000
0000
0000
0000
0000
0000
0000
0000
0000
0000
0000
0000
0000
0000
0000
0000
0000
0000
0000
0000
0000
0000
0000
0000
0000
0000
0000
0000
0000
0000
0000
0000
0000
0000
0000
0000
0000
0000
0000
0000
0000
0000
0000
0000
0000
0000
0000
0000
0000
0000
0000
0000
0000
0000
0000
0000
0000
0000
0000
0000
0000
0000
0000
0000
0000
0000
0000
0000
0000
0000
0000
0000
0000
0000
0000
0000
0000
0000
0000
0000
0000
0000
0000
,
0011
0100
0010
1000
0101
1000
0010
0100
0011
1000
0001
0100
1010
0100
0010
0001
,
1010
0100
1000
0010
1001
0100
0010
1000
0110
0001
0010
1000
0101
0010
1100
0010
,
1100
0010
0001
0100
1010
0100
0001
0010
0101
0010
0100
0010
1001
0100
0010
0100
,
0011
0000
1000
0000
0100
0000
0001
0000
1010
0000
0100
0000
0001
0000
0100
0000
0011
1000
0100
0001
0010
1000
0010
0100
1011
0000
0100
0000
0010
0000
1000
0000
,
0101
1000
0010
0100
0011
1000
0001
0100
1010
0100
0010
0001
1010
0100
1000
0010
,
1001
0100
0010
1000
0110
0001
0010
1000
0101
0010
0100
0010
1100
0010
0001
0100
,
1010
0000
0100
0000
0001
0000
0010
0000
0101
0000
0010
0000
0100
0000
0010
0000
1001
0000
0100
0000
0010
0000
0100
0000
1001
0010
1000
0001
0110
1000
0010
0001
,
1100
0010
0001
1000
0110
0001
0010
0100
1001
0000
0100
0000
0011
0000
1000
0000
0101
0000
1000
0000
0011
0000
0100
0000
0011
0000
1000
0000
0011
0000
0100
0000
,
1010
0100
1010
0001
1010
0100
1001
0010
1001
0100
0011
1000
0110
0001
0110
1000
,
0101
0010
1100
0010
1100
0010
1001
0100
1010
0100
1001
0010
0101
0010
0101
0010
,
1001
0000
0100
0000
1010
0000
0100
0000
0011
0000
1000
0000
0110
0000
0001
0000
1010
0000
0100
0000
1001
0000
0100
0000
0011
0100
0010
0100
0010
0001
0010
0100
,
2022
3033
0100
0000
0011
0000
1000
0000
0101
0000
1000
0000
0011
0000
0100
0000
0011
0000
1000
0000
0011
0000
0100
0000
1010
0000
0001
0000
1010
0000
0100
0000
,
2022
3033
0100
0000
1001
0000
0010
0000
1001
0000
0100
0000
0011
0000
1000
0000
0110
0000
0001
0000
0110
0000
1000
0000
0101
0000
0010
0000
0101
0000
0010
0000
,
2202
3303
0010
0000
1001
0000
0100
0000
1010
0000
0100
0000
1001
0000
0010
0000
2202
3303
0010
0000
0101
0000
0010
0000
1001
0000
0100
0000
1010
0000
0100
0000
,
1001
0010
1000
0001
1010
0100
1000
0100
0011
1000
0100
0010
0101
0010
1000
0100
1020
0000
0000
0000
0000
0000
0000
0000
1100
0000
0000
0000
0000
0000
0000
0000
,
1032
1010
1023
1100
,
1230
0000
1010
1000
2301
0000
0011
0000
,
0001
0011
0001
0011
,
3201
0000
0000
0000
0000
0000
0000
0000
0000
0000
0000
0000
0000
0000
0000
0000
0011
0000
0000
0000
0000
0000
0000
0000
0001
0000
0000
0000
0000
0000
0000
0300
0120
0000
0000
0000
0000
0000
0000
0000
0000
0000
0000
0000
0000
0000
0000
0000
1100
0000
0000
0000
0000
0000
0000
0000
0000
0000
0000
0000
0000
0000
0000
0000
,
0132
1100
0123
1100
,
0132
0110
0213
0011
,
0010
0000
0000
0000
0000
0000
0000
0000
0011
0000
0000
0000
0000
0000
0000
0000
0310
0100
0000
0001
0010
0100
0000
0010
0100
1000
0100
1000
0010
0001
0010
0100
,
1022
0003
0000
0000
1100
0000
0000
0000
1232
0300
0000
0000
1100
0000
0000
0000
,
1223
0300
0000
0000
1100
0000
0000
0000
1232
0003
0000
0000
1010
0000
1000
0000
,
2321
0030
0000
0000
0011
0000
0000
0000
0001
0000
0000
0000
0011
0000
0000
0000
,
0001
0000
0000
0000
0000
0000
0000
0000
0000
0000
0000
0000
0000
0000
0000
0000
0011
0000
0000
0000
0000
0000
0000
0000
0000
0000
0000
0000
0000
0000
0000
0000
3221
0000
0000
0000
0030
0000
0000
0000
0000
0000
0000
0000
0000
0000
0000
0000
0011
0000
0000
0000
0000
0000
0000
0000
0001
0000
0000
0000
0000
0000
0000
0300
,
2202
0303
0000
0000
3000
0000
0000
0000
0000
0000
0000
0000
0000
0000
0000
0000
2202
3303
0000
0000
0000
0000
0000
0000
0000
0000
0000
0000
0000
0000
0000
0000
2202
3303
0000
0000
0000
0000
0000
0000
2202
3303
0000
0000
0000
0000
0000
0000
0000
0000
0000
0000
0000
0000
0000
0000
2202
3303
0000
0000
0000
0000
0000
0000
,
2202
3303
0000
0000
0000
0000
0000
0000
2202
3303
0000
0000
0000
0000
0000
0000
0000
0000
0000
0000
0000
0000
0000
0000
2202
3303
0000
0000
0000
0000
0000
0000
0000
0000
0000
0000
0000
0000
0000
0000
2202
3303
0000
0000
0000
0000
0000
0000
0000
0000
0000
0000
0000
0000
0000
0000
2202
3303
0000
0000
0010
0000
0000
0000
,
0101
0000
0000
0000
0000
0000
0101
0000
0000
0000
0000
0000
0001
0000
0010
0000
0100
0000
1000
0000
0001
0000
0010
0000
0101
0000
0000
0000
0000
0000
0101
0000
0000
0000
0000
0000
0001
0010
0100
1000
0001
0010
0100
1000
0001
0010
0100
1000
,
0002
0000
0000
0000
0000
0000
0000
0000
0200
0000
0000
0000
0000
0000
0000
0300
,
2023
0030
0000
0000
0000
0000
0000
0000
0000
0000
0000
0000
0000
0000
0000
0000
0000
0000
0000
0000
0000
0000
3000
0000
0200
0000
0000
0000
0000
0000
0000
0000
,
0320
0000
0000
0000
0000
0000
0000
0000
0000
0000
0000
0030
0002
0000
0000
0000
,
0023
0230
2300
3200
,
0302
0000
0000
0000
,
0000
0000
0000
0000
,
0000
0000
0003
0000
;
